<?xml version="1.0" standalone="no"?>
<!DOCTYPE svg PUBLIC "-//W3C//DTD SVG 1.1//EN" "http://www.w3.org/Graphics/SVG/1.1/DTD/svg11.dtd" >
<svg xmlns="http://www.w3.org/2000/svg">
<metadata></metadata>
<defs>
<font id="graphein_problack_italic" horiz-adv-x="584" >
<font-face units-per-em="1000" ascent="758" descent="-242" />
<missing-glyph horiz-adv-x="250" />
<glyph unicode="&#xfb01;" horiz-adv-x="705" d="M66 0l80 375h-102l26 120h102l9 42q22 103 71.5 146t146.5 43q55 0 115 -16l-34 -121q-31 12 -49 12q-63 0 -81 -80l-6 -26h124l-25 -120h-124l-80 -375h-173zM548 573l25 120h173l-25 -120h-173zM426 0l106 495h172l-105 -495h-173z" />
<glyph unicode="&#xfb02;" horiz-adv-x="705" d="M66 0l80 375h-102l26 120h102l9 42q22 103 71.5 146t146.5 43q55 0 115 -16l-34 -121q-31 12 -49 12q-63 0 -81 -80l-6 -26h124l-25 -120h-124l-80 -375h-173zM426 0l152 715h173l-152 -715h-173z" />
<glyph unicode="&#xfb03;" horiz-adv-x="1065" d="M66 0l80 375h-102l26 120h102l9 42q22 103 71.5 146t146.5 43q55 0 115 -16l-34 -121q-31 12 -49 12q-63 0 -81 -80l-6 -26h188l9 42q22 103 71.5 146t146.5 43q55 0 115 -16l-34 -121q-31 12 -49 12q-63 0 -81 -80l-6 -26h124l-25 -120h-124l-80 -375h-173l80 375h-187 l-80 -375h-173zM908 573l25 120h173l-25 -120h-173zM786 0l106 495h172l-105 -495h-173z" />
<glyph unicode="&#xfb04;" horiz-adv-x="1065" d="M66 0l80 375h-102l26 120h102l9 42q22 103 71.5 146t146.5 43q55 0 115 -16l-34 -121q-31 12 -49 12q-63 0 -81 -80l-6 -26h188l9 42q22 103 71.5 146t146.5 43q55 0 115 -16l-34 -121q-31 12 -49 12q-63 0 -81 -80l-6 -26h124l-25 -120h-124l-80 -375h-173l80 375h-187 l-80 -375h-173zM786 0l152 715h173l-152 -715h-173z" />
<glyph horiz-adv-x="0" />
<glyph horiz-adv-x="333" />
<glyph unicode=" "  horiz-adv-x="250" />
<glyph unicode="&#x09;" horiz-adv-x="250" />
<glyph unicode="&#xa0;" horiz-adv-x="250" />
<glyph unicode="!" horiz-adv-x="283" d="M69 216l72 451h177l-119 -451h-130zM7 0l33 153h161l-33 -153h-161z" />
<glyph unicode="&#x22;" horiz-adv-x="433" d="M301 447l32 268h163l-81 -268h-114zM102 447l32 268h164l-82 -268h-114z" />
<glyph unicode="#" d="M64 0l39 182h-95l24 111h94l20 94h-94l23 111h95l36 169h125l-36 -169h98l36 169h126l-36 -169h94l-23 -111h-94l-20 -94h94l-24 -111h-95l-38 -182h-126l39 182h-98l-39 -182h-125zM252 293h98l20 94h-98z" />
<glyph unicode="$" d="M10 24l41 133q102 -41 191 -41q63 0 97.5 23.5t34.5 66.5q0 32 -20.5 47t-85.5 32q-97 24 -140.5 67t-43.5 116q0 94 68 148.5t191 59.5l19 89h81l-20 -90q87 -7 159 -29l-40 -126q-118 36 -181 36q-52 0 -81.5 -18.5t-29.5 -51.5q0 -36 41 -52q10 -4 78 -22 q170 -45 170 -184q0 -62 -30 -114t-82 -82q-60 -34 -149 -39l-19 -92h-81l20 92q-116 9 -188 31z" />
<glyph unicode="%" horiz-adv-x="924" d="M214 261q-67 0 -105.5 39.5t-38.5 108.5q0 126 63 208q45 59 127 59q64 0 100.5 -38t36.5 -105q0 -106 -49 -196q-42 -76 -134 -76zM189 0l468 667h113l-468 -667h-113zM209 331q27 0 46 41q15 31 26.5 85.5t11.5 93.5q0 55 -34 55q-27 0 -46 -36q-15 -29 -27 -84 t-12 -96q0 -59 35 -59zM562 142q0 126 63 208q45 59 127 59q64 0 100.5 -38t36.5 -105q0 -104 -50 -196q-42 -76 -133 -76q-67 0 -105.5 39.5t-38.5 108.5zM666 124q0 -60 35 -60q25 0 46 41q14 31 25.5 85.5t11.5 92.5q0 56 -34 56q-27 0 -45 -36q-15 -28 -27 -83.5 t-12 -95.5z" />
<glyph unicode="&#x26;" horiz-adv-x="743" d="M18 181q0 95 78 153q34 24 95 39q-63 48 -63 125q0 45 23.5 84t64.5 64q59 35 145 35q95 0 148 -38q63 -44 63 -123q0 -63 -46 -110.5t-132 -73.5l100 -114q57 43 75 133h144q-20 -152 -147 -243l100 -112h-182l-31 38q-85 -49 -194 -49q-113 0 -177 51t-64 141zM319 420 l9 2q42 11 69.5 35.5t27.5 52.5q0 25 -19.5 41.5t-50.5 16.5q-33 0 -55 -20t-22 -50q0 -39 41 -78zM173 182q0 -36 27 -58t71 -22q60 0 111 30l-122 151q-87 -40 -87 -101z" />
<glyph unicode="'" horiz-adv-x="234" d="M102 447l32 268h164l-82 -268h-114z" />
<glyph unicode="(" horiz-adv-x="386" d="M36 163q0 308 246 552h153q-114 -127 -166 -233q-85 -175 -85 -363q0 -170 61 -320h-127q-82 181 -82 364z" />
<glyph unicode=")" horiz-adv-x="386" d="M120 32q84 171 84 363q0 167 -61 320h128q82 -187 82 -365q0 -310 -247 -551h-152q111 122 166 233z" />
<glyph unicode="*" d="M241 345l-75 84l120 84l-137 57l57 97l117 -87l12 147l110 -24l-47 -138l144 34l11 -112l-146 2l77 -126l-103 -45l-43 139z" />
<glyph unicode="+" d="M252 103v180h-190v120h190v180h120v-180h190v-120h-190v-180h-120z" />
<glyph unicode="," horiz-adv-x="272" d="M-63 -107l111 260h169l-144 -260h-136z" />
<glyph unicode="-" horiz-adv-x="257" d="M-12 197l26 123h257l-26 -123h-257z" />
<glyph unicode="." horiz-adv-x="272" d="M2 0l32 153h162l-33 -153h-161z" />
<glyph unicode="/" horiz-adv-x="525" d="M60 -201h-149l502 916h151z" />
<glyph unicode="0" d="M43 234q0 97 28 191t76 158q73 98 207 98q104 0 162.5 -62.5t58.5 -174.5q0 -82 -22 -170.5t-60 -158.5q-69 -126 -218 -126q-109 0 -170.5 65t-61.5 180zM268 102q46 0 78 70q24 52 43.5 145t19.5 157q0 44 -15 69t-43 25q-44 0 -76 -62q-25 -49 -45.5 -142.5 t-20.5 -161.5q0 -100 59 -100z" />
<glyph unicode="1" d="M199 0l79 375q15 73 38 123q-32 -29 -48 -39l-90 -57l-64 122l255 143h148l-142 -667h-176z" />
<glyph unicode="2" d="M-2 0l25 118q87 57 243 174q70 53 101 95t31 83q0 35 -29.5 59.5t-72.5 24.5q-64 0 -165 -42l15 138q89 31 174 31q111 0 169 -42q34 -25 54 -66t20 -87q0 -116 -125 -234q-82 -77 -190 -134q68 5 122 5h136l-26 -123h-482z" />
<glyph unicode="3" d="M6 31l33 128q79 -43 166 -43q65 0 107 27t42 69q0 22 -14.5 38.5t-39.5 24.5q-21 7 -39.5 8t-91.5 1l25 117q42 -3 63 -3q69 0 104 14q20 8 33.5 27.5t13.5 41.5q0 34 -32.5 53.5t-87.5 19.5q-59 0 -149 -29l16 129q94 27 184 27q110 0 172 -45.5t62 -127.5 q0 -86 -67 -133q-41 -29 -118 -36q132 -24 132 -139q0 -93 -75 -152q-76 -59 -215 -59q-126 0 -224 42z" />
<glyph unicode="4" d="M-11 131l25 116l351 420h196l-89 -420h96l-25 -116h-96l-28 -131h-165l28 131h-293zM149 243q30 4 53 4h111l29 135q18 84 49 174q-31 -55 -107.5 -154.5t-134.5 -158.5z" />
<glyph unicode="5" d="M13 25l28 131q87 -40 159 -40q69 0 111.5 30.5t42.5 79.5t-37 74.5t-108 25.5q-63 0 -135 -12l82 355h437l-27 -123h-282l-24 -111q23 4 40 4q96 0 158 -55.5t62 -141.5q0 -114 -92 -186q-85 -67 -223 -67q-96 0 -192 36z" />
<glyph unicode="6" d="M49 246q0 89 26.5 176.5t71.5 145.5q88 113 244 113q105 0 200 -49l-43 -114q-65 44 -141 44q-92 0 -142 -80q-21 -34 -39 -101q33 25 58.5 34.5t60.5 9.5q85 0 139 -54t54 -140q0 -110 -67 -176t-179 -66q-116 0 -179.5 67t-63.5 190zM195 193q0 -40 22 -65.5t57 -25.5 q42 0 70 34.5t28 86.5q0 40 -21.5 64.5t-56.5 24.5q-43 0 -71 -33.5t-28 -85.5z" />
<glyph unicode="7" d="M49 0l278 417q56 83 102 129l-316 -1l26 123h484l-32 -149l-341 -519h-201z" />
<glyph unicode="8" d="M93 39q-32 24 -51 61.5t-19 77.5q0 64 43 109.5t121 62.5q-84 51 -84 137q0 97 84 154q60 40 154 40q109 0 172 -45.5t63 -125.5q0 -78 -57 -128q-36 -32 -104 -45q117 -47 117 -148q0 -83 -60 -140q-64 -60 -195 -60q-116 0 -184 50zM314 398l15 4q40 10 66 39t26 61 q0 27 -22 46.5t-53 19.5q-37 0 -64 -25.5t-27 -59.5q0 -44 59 -85zM186 179q0 -34 24 -55.5t61 -21.5q41 0 68 25.5t27 64.5q0 30 -17 52t-56 44q-25 -10 -39 -17q-68 -33 -68 -92z" />
<glyph unicode="9" d="M30 38l42 114q69 -44 142 -44q94 0 142 80q19 31 38 101q-54 -44 -119 -44q-84 0 -140 56q-53 53 -53 138q0 110 67 176t179 66q116 0 179.5 -67t63.5 -190q0 -89 -26.5 -176.5t-71.5 -145.5q-88 -113 -242 -113q-112 0 -201 49zM328 358q43 0 70.5 33t27.5 86 q0 40 -22 65.5t-57 25.5q-43 0 -71 -34.5t-28 -86.5q0 -40 22 -64.5t58 -24.5z" />
<glyph unicode=":" horiz-adv-x="272" d="M75 343l32 152h162l-33 -152h-161zM2 0l33 153h161l-33 -153h-161z" />
<glyph unicode=";" horiz-adv-x="272" d="M65 343l32 152h161l-32 -152h-161zM-63 -107l111 260h169l-144 -260h-136z" />
<glyph unicode="&#x3c;" horiz-adv-x="500" d="M51 280v109l433 220v-128l-296 -147l295 -148l1 -128z" />
<glyph unicode="=" d="M62 370v115h500v-115h-500zM62 202v115h500v-115h-500z" />
<glyph unicode="&#x3e;" horiz-adv-x="500" d="M51 58v129l296 147l-295 147l-1 128l433 -221v-109z" />
<glyph unicode="?" horiz-adv-x="498" d="M171 215q10 63 33 97t103 105q42 37 42 81q0 30 -29 47.5t-81 17.5q-57 0 -139 -32l20 129q75 23 153 23q116 0 182.5 -43.5t66.5 -120.5q0 -52 -29.5 -96.5t-104.5 -106.5q-47 -39 -60 -55.5t-18 -45.5h-139zM115 0l32 153h162l-33 -153h-161z" />
<glyph unicode="@" horiz-adv-x="749" d="M161 -3q-50 48 -78.5 114.5t-28.5 138.5q0 149 103.5 252.5t252.5 103.5q137 0 228.5 -85t91.5 -212q0 -91 -51 -158t-120 -67q-57 0 -85 49q-18 -22 -48.5 -36t-62.5 -14q-57 0 -95.5 41.5t-38.5 103.5q0 73 49.5 128t114.5 55q46 0 86 -35l5 26l92 -1l-35 -175 q-6 -33 -6 -38q0 -24 24 -24q33 0 59 44.5t26 100.5q0 92 -64.5 150.5t-164.5 58.5q-112 0 -189 -78t-77 -191q0 -110 73 -185q68 -69 194 -69q89 0 182 31l22 -88q-91 -31 -210 -31q-153 0 -249 90zM332 232q0 -26 14.5 -42t38.5 -16q28 0 49.5 26t21.5 60q0 26 -14.5 42 t-36.5 16q-29 0 -51 -26t-22 -60z" />
<glyph unicode="A" horiz-adv-x="734" d="M-51 0l397 667h224l109 -667h-179l-20 143h-255l-84 -143h-192zM294 270h169l-21 191l-1 12l-2 25v26l-2 14q-7 -14 -7 -15q-14 -31 -17 -38l-27 -52z" />
<glyph unicode="B" horiz-adv-x="642" d="M11 0l142 667h237q77 0 113.5 -6.5t65.5 -25.5q65 -42 65 -123q0 -74 -50 -120t-131 -46h-4l-2 -4q70 -2 107.5 -37.5t37.5 -98.5q0 -58 -33.5 -105.5t-88.5 -68.5q-81 -32 -274 -32h-185zM277 403h34q79 0 111 26q27 22 27 56q0 32 -23 45.5t-75 13.5h-44zM217 123h51 q56 0 83 10q58 23 58 83q0 42 -35 57q-20 8 -72 8h-51z" />
<glyph unicode="C" horiz-adv-x="653" d="M144 66q-96 85 -96 227q0 86 33.5 163.5t94.5 130.5q108 93 286 93q119 0 234 -38l-44 -135q-85 42 -170 42q-112 0 -178 -68q-71 -73 -71 -185q0 -85 48.5 -131.5t136.5 -46.5q86 0 169 40l-20 -143q-101 -28 -197 -28q-137 0 -226 79z" />
<glyph unicode="D" horiz-adv-x="742" d="M11 0l142 667h180q111 0 159.5 -6.5t90.5 -26.5q70 -35 107.5 -100t37.5 -153q0 -119 -61 -216t-161 -135q-77 -30 -288 -30h-207zM218 127h40q79 0 122.5 10.5t75.5 36.5q39 32 63 87.5t24 116.5q0 92 -65 137q-35 24 -119 24h-53z" />
<glyph unicode="E" horiz-adv-x="594" d="M11 0l142 667h470l-27 -127h-290l-29 -134h275l-27 -127h-275l-32 -152h302l-27 -127h-482z" />
<glyph unicode="F" horiz-adv-x="550" d="M11 0l142 667h446l-27 -127h-266l-30 -139h256l-27 -127h-256l-58 -274h-180z" />
<glyph unicode="G" horiz-adv-x="723" d="M149 58q-101 87 -101 246q0 93 36 170t104 127q110 81 300 81q125 0 228 -31l-37 -139q-85 39 -176 39q-125 0 -198 -69.5t-73 -189.5q0 -81 44.5 -128.5t119.5 -47.5q33 0 77 13l29 134h-106l26 123h280l-78 -366q-111 -35 -234 -35q-157 0 -241 73z" />
<glyph unicode="H" horiz-adv-x="699" d="M11 0l142 667h180l-54 -251h211l53 251h180l-141 -667h-180l60 283h-211l-60 -283h-180z" />
<glyph unicode="I" horiz-adv-x="321" d="M17 0l142 667h180l-142 -667h-180z" />
<glyph unicode="J" horiz-adv-x="429" d="M-39 10l35 143q44 -16 75 -16q71 0 100 60q10 21 26 97l79 373h180l-88 -412q-17 -79 -26.5 -110t-26.5 -59q-62 -99 -214 -99q-76 0 -140 23z" />
<glyph unicode="K" horiz-adv-x="687" d="M11 0l142 667h180l-42 -198l-6 -25l-7 -26q-4 -18 -8 -31l11 13l19 24q13 17 40 47l183 196h229l-321 -325l199 -342h-207l-127 237q-17 32 -39 88q-8 -49 -16 -88l-50 -237h-180z" />
<glyph unicode="L" horiz-adv-x="539" d="M11 0l142 667h180l-114 -534h278l-29 -133h-457z" />
<glyph unicode="M" horiz-adv-x="967" d="M11 0l142 667h274l27 -250q12 -117 11 -195l-1 -47h4q20 83 80 194l159 298h283l-140 -667h-176l95 429q14 63 38 142h-6q-46 -106 -94 -196l-200 -375h-162l-36 331q-12 110 -16 240h-6q-14 -103 -26 -162l-83 -409h-167z" />
<glyph unicode="N" horiz-adv-x="751" d="M11 0l142 667h220l97 -320q8 -25 13.5 -45t9.5 -37.5t6.5 -27t5 -24.5t3.5 -20t3 -22.5t3 -22.5h5q0 66 23 181l66 338h168l-143 -667h-220l-106 357q-22 73 -32 156h-5q-2 -46 -10 -89l-15 -88l-69 -336h-165z" />
<glyph unicode="O" horiz-adv-x="741" d="M121 61q-78 83 -78 218q0 96 37.5 181t104.5 141q52 43 112 62.5t143 19.5q141 0 214 -80q72 -80 72 -211q0 -76 -25.5 -151t-70.5 -131q-100 -126 -294 -126q-142 0 -215 77zM228 261q0 -68 31 -107t84 -39q85 0 142.5 84.5t57.5 208.5q0 67 -31 105.5t-85 38.5 q-73 0 -120 -56q-79 -97 -79 -235z" />
<glyph unicode="P" horiz-adv-x="594" d="M11 0l142 667h155q94 0 135.5 -5t74.5 -19q107 -47 107 -164q0 -54 -23.5 -103.5t-64.5 -81.5q-38 -31 -87.5 -44t-126.5 -13q-40 0 -80 5l-51 -242h-181zM270 370q30 -2 37 -2q62 0 97.5 27t35.5 75q0 43 -34 62q-20 10 -68 10h-32z" />
<glyph unicode="Q" horiz-adv-x="741" d="M43 280q0 95 37.5 180t104.5 141q100 82 246 82q150 0 223 -80q72 -80 72 -211q0 -162 -96 -282q-58 -75 -154 -105l115 -131h-208l-72 111q-126 5 -197 83.5t-71 211.5zM228 261q0 -68 31 -107t84 -39q85 0 142.5 84.5t57.5 208.5q0 67 -31 105.5t-85 38.5 q-73 0 -120 -56q-79 -97 -79 -235z" />
<glyph unicode="R" horiz-adv-x="648" d="M11 0l142 667h173q103 0 147 -4.5t76 -17.5q99 -40 99 -145q0 -49 -23 -89t-63 -59q-34 -17 -114 -28q40 -10 55.5 -34t34.5 -105l42 -185h-179l-29 148q-16 82 -28.5 97t-62.5 15h-35l-55 -260h-180zM273 387h41q74 0 104 15q46 24 46 74q0 45 -41 59q-18 6 -70 6h-47z " />
<glyph unicode="S" horiz-adv-x="577" d="M-4 22l43 134q81 -38 166 -38q66 0 102 22t36 63q0 28 -19.5 43t-97.5 46q-77 31 -109 68.5t-32 98.5q0 50 22.5 94.5t62.5 72.5q74 54 209 54q108 0 208 -30l-43 -131q-79 30 -159 30q-52 0 -84.5 -18.5t-32.5 -48.5q0 -22 19 -36.5t88 -44.5q84 -37 115 -73 q38 -46 38 -110q0 -45 -18 -87.5t-49 -71.5q-76 -72 -237 -72q-120 0 -228 35z" />
<glyph unicode="T" horiz-adv-x="541" d="M129 0l114 534h-169l28 133h513l-28 -133h-164l-114 -534h-180z" />
<glyph unicode="U" horiz-adv-x="708" d="M61 201q0 45 25 164l64 302h180l-68 -317q-19 -86 -19 -138q0 -46 24.5 -71.5t67.5 -25.5q80 0 115 86q11 28 35 136l70 330h180l-72 -341q-22 -105 -39.5 -154t-43.5 -83q-84 -105 -252 -105q-124 0 -195.5 58t-71.5 159z" />
<glyph unicode="V" horiz-adv-x="690" d="M180 0l-86 667h178l33 -331q9 -99 9 -141q0 -17 -3 -61h5q34 94 89 198l174 335h194l-372 -667h-221z" />
<glyph unicode="W" horiz-adv-x="957" d="M103 0l-6 667h175l-11 -318q-5 -141 -21 -248h6q24 96 76 231l128 335h230l-8 -322q-1 -29 -1.5 -51t-2 -44t-2 -32.5t-3 -31.5t-3 -25t-4 -30t-4.5 -30h7q22 101 59 200l137 366h182l-289 -667h-226l8 331q4 161 20 240h-7q-14 -53 -40 -125q-1 -3 -17 -47.5t-22 -60.5 l-133 -338h-228z" />
<glyph unicode="X" horiz-adv-x="693" d="M-45 0l297 355l-134 312h191l41 -116q24 -67 30 -100l9 13l16 25l25 35l111 143h215l-272 -320l147 -347h-191l-53 147q-21 59 -32 97q-23 -38 -66 -94l-115 -150h-219z" />
<glyph unicode="Y" horiz-adv-x="690" d="M202 0l53 247l-161 420h189l48 -144l8 -25q5 -20 11 -38q13 -45 18 -69q25 49 60 99l126 177h220l-339 -420l-53 -247h-180z" />
<glyph unicode="Z" horiz-adv-x="599" d="M-18 0l31 145l328 340q21 22 64 58q-30 -3 -84 -3h-217l27 127h515l-30 -139l-315 -329l-48 -47q-23 -21 -29 -26q21 1 72 1h242l-27 -127h-529z" />
<glyph unicode="[" horiz-adv-x="386" d="M141 -100h107l-21 -101h-251l195 916h250l-22 -103h-110z" />
<glyph unicode="\" horiz-adv-x="519" d="M270 -201l-112 916h145l112 -916h-145z" />
<glyph unicode="]" horiz-adv-x="387" d="M-11 -98h111l147 712h-107l22 101h250l-194 -916h-251z" />
<glyph unicode="^" horiz-adv-x="500" d="M22 334l160 337h171l160 -337h-136l-109 233l-110 -233h-136z" />
<glyph unicode="_" horiz-adv-x="500" d="M18 -46h500v-117h-500v117z" />
<glyph unicode="`" horiz-adv-x="500" d="M316 567l-131 140h153l92 -140h-114z" />
<glyph unicode="a" horiz-adv-x="575" d="M8 134q0 49 28.5 88.5t78.5 59.5q74 29 192 29q29 0 73 -3q2 18 2 22q0 34 -25 52.5t-71 18.5q-77 0 -162 -36l18 113q91 30 180 30q96 0 152 -39q65 -45 65 -121q0 -36 -17 -120l-25 -119q-10 -50 -18 -109h-143l2 11q13 71 14 74h-3q-49 -94 -177 -94 q-73 0 -118.5 39.5t-45.5 103.5zM175 148q0 -23 16.5 -36.5t45.5 -13.5q62 0 97 49q18 24 28 74q-3 1 -7 1q-18 2 -40 2q-68 0 -104 -19.5t-36 -56.5z" />
<glyph unicode="b" horiz-adv-x="651" d="M0 0l9 29q23 92 26 107l123 579h173l-51 -238q0 -4 -1 -8.5t-2 -7.5l-1 -3l-6 -19q0 -1 -1 -5q-1 -3 -1 -6q65 80 160 80q88 0 139.5 -59.5t51.5 -161.5q0 -130 -79 -222q-68 -78 -181 -78q-131 0 -175 121l-2 -12l-7 -39q-1 -2 -2.5 -9t-5 -19.5t-7.5 -28.5h-160z M230 213q0 -47 22 -74t62 -27q53 0 90.5 49t37.5 120q0 47 -22.5 74.5t-59.5 27.5q-55 0 -92.5 -49t-37.5 -121z" />
<glyph unicode="c" horiz-adv-x="493" d="M27 221q0 75 33.5 140t91.5 102q71 45 185 45q87 0 170 -31l-37 -119q-57 25 -112 25q-66 0 -109.5 -43t-43.5 -108q0 -51 35 -83.5t90 -32.5q44 0 104 23l-20 -126q-76 -22 -142 -22q-113 0 -179 62t-66 168z" />
<glyph unicode="d" horiz-adv-x="652" d="M30 212q0 130 71.5 213t183.5 83q82 0 132 -39q24 -19 40 -57l6 22l6 40q1 2 7 32l44 209h173l-115 -541q-17 -81 -32 -174h-163l5 30q0 1 13 47q0 1 0.5 3.5t1.5 7t1 8.5q-33 -58 -75 -83.5t-103 -25.5q-91 0 -143.5 60t-52.5 165zM206 215q0 -47 22 -75t59 -28 q54 0 93.5 50.5t39.5 120.5q0 44 -23.5 72t-61.5 28q-54 0 -91.5 -49t-37.5 -119z" />
<glyph unicode="e" horiz-adv-x="579" d="M25 213q0 72 32 137.5t86 104.5q73 53 184 53q105 0 162.5 -57t57.5 -161q0 -40 -13 -89h-352q-1 -8 -1 -17q0 -40 33.5 -64.5t89.5 -24.5q76 0 168 37l-18 -116q-88 -29 -175 -29q-121 0 -187.5 59.5t-66.5 166.5zM197 298h209q1 8 1 17q0 44 -24 69.5t-64 25.5 q-46 0 -77.5 -29.5t-44.5 -82.5z" />
<glyph unicode="f" horiz-adv-x="431" d="M66 0l80 375h-102l26 120h102l9 42q22 103 71.5 146t146.5 43q55 0 115 -16l-34 -121q-31 12 -49 12q-63 0 -81 -80l-6 -26h124l-25 -120h-124l-80 -375h-173z" />
<glyph unicode="g" horiz-adv-x="645" d="M56 -46q75 -39 159 -39q58 0 94.5 21t58.5 67q21 45 29 91q-38 -50 -76 -70t-94 -20q-92 0 -146 58t-54 156q0 125 76 207.5t192 82.5q85 0 133 -41q22 -19 40 -65l2 10l1 2q10 47 19 81h153q-26 -95 -42 -171l-55 -259q-16 -73 -32 -114.5t-41 -71.5q-74 -89 -249 -89 q-110 0 -203 32zM206 229q0 -46 23.5 -73t62.5 -27q53 0 90.5 47.5t37.5 115.5q0 41 -23.5 66t-61.5 25q-55 0 -92 -44.5t-37 -109.5z" />
<glyph unicode="h" horiz-adv-x="638" d="M0 0l152 715h173l-45 -210q-11 -51 -21 -81h4q63 84 169 84q74 0 119 -45q48 -50 48 -118q0 -26 -17 -106l-51 -239h-173l51 241q3 13 6 24q8 27 8 47q0 28 -19 45t-50 17q-65 0 -105 -66q-17 -29 -35 -115l-41 -193h-173z" />
<glyph unicode="i" horiz-adv-x="279" d="M122 573l25 120h173l-26 -120h-172zM0 0l105 495h173l-105 -495h-173z" />
<glyph unicode="j" horiz-adv-x="282" d="M125 573l25 120h173l-26 -120h-172zM11 40l97 455h173l-96 -449q-19 -89 -26.5 -114.5t-21.5 -48.5q-53 -88 -172 -88q-57 0 -102 16l28 103q19 -5 34 -5q37 0 52.5 23.5t33.5 107.5z" />
<glyph unicode="k" horiz-adv-x="585" d="M0 0l152 715h173l-77 -362q-3 -16 -8 -34.5t-8 -31.5h3q22 35 64 84l102 124h194l-204 -237l130 -258h-189l-65 150q-26 61 -40 103h-3q-4 -33 -12 -68l-39 -185h-173z" />
<glyph unicode="l" horiz-adv-x="279" d="M0 0l152 715h173l-152 -715h-173z" />
<glyph unicode="m" horiz-adv-x="965" d="M7 0l71 335q19 88 28 160h155q-5 -46 -22 -96h4q29 52 79 80.5t112 28.5q81 0 116 -51q14 -21 19 -57q41 57 86 82.5t104 25.5q77 0 119 -44q44 -46 44 -113q0 -51 -23 -159l-41 -192h-172l39 185q22 103 22 121q0 27 -18 44t-47 17q-54 0 -88 -59q-16 -28 -35 -119 l-40 -189h-173l42 194q18 83 18 111q0 29 -15.5 46t-42.5 17q-26 0 -50 -14.5t-40 -39.5q-18 -29 -37 -120l-41 -194h-173z" />
<glyph unicode="n" horiz-adv-x="646" d="M6 0l71 332l6 33l11 53q4 20 11 77h155q-5 -41 -21 -95h5q79 108 187 108q78 0 122 -45.5t44 -127.5q0 -63 -22 -168l-36 -167h-173l34 161q21 94 21 142q0 31 -17.5 50t-46.5 19q-32 0 -61 -20.5t-46 -55.5q-14 -28 -31 -109l-40 -187h-173z" />
<glyph unicode="o" horiz-adv-x="635" d="M96 43q-71 60 -71 169q0 135 88.5 215.5t237.5 80.5q115 0 184 -63.5t69 -169.5q0 -58 -22.5 -114t-60.5 -93q-84 -81 -241 -81q-118 0 -184 56zM203 212q0 -49 25.5 -79.5t66.5 -30.5q56 0 95 52t39 128q0 50 -24 80.5t-64 30.5q-57 0 -97.5 -53.5t-40.5 -127.5z" />
<glyph unicode="p" horiz-adv-x="652" d="M183 20l-47 -221h-173l111 520q23 108 32 176h161q-9 -60 -22 -94h4q65 107 181 107q88 0 140 -59t52 -158q0 -129 -78 -223q-68 -81 -183 -81q-91 0 -133 48q-16 18 -31 56l-3 -8q0 -4 -3 -19q0 -7 -8 -44zM236 209q0 -43 24 -70t63 -27q51 0 88 50t37 120 q0 45 -22.5 73t-59.5 28q-65 0 -103 -72q-27 -51 -27 -102z" />
<glyph unicode="q" horiz-adv-x="646" d="M27 210q0 130 81 221q68 77 181 77q66 0 105 -27.5t61 -89.5q1 3 2 7q1 3 1 4l6 39l13 54h168l-14 -54q-14 -58 -15 -64l-123 -578h-173l31 142q22 97 37 134h-4q-24 -41 -67.5 -64.5t-96.5 -23.5q-87 0 -140 61t-53 162zM201 215q0 -46 23.5 -74.5t60.5 -28.5 q55 0 94.5 50.5t39.5 120.5q0 44 -24.5 72t-62.5 28q-54 0 -92.5 -49t-38.5 -119z" />
<glyph unicode="r" horiz-adv-x="433" d="M7 0l68 318q13 60 30 177h157q-14 -82 -24 -111h3q28 61 67 89.5t94 28.5q29 0 68 -10l-36 -143q-45 12 -71 12q-74 0 -110 -65q-16 -29 -35 -116l-38 -180h-173z" />
<glyph unicode="s" horiz-adv-x="479" d="M-14 16l36 118q71 -32 148 -32q92 0 92 46q0 25 -44 41q-89 30 -125 59q-41 35 -41 90q0 79 64 124.5t176 45.5q86 0 176 -28l-36 -109q-68 30 -128 30q-40 0 -63 -12t-23 -33q0 -12 9 -21q12 -10 84 -39q65 -26 90.5 -55t25.5 -78q0 -83 -64 -129.5t-178 -46.5 q-112 0 -199 29z" />
<glyph unicode="t" horiz-adv-x="420" d="M86 125q0 47 14 113l29 137h-95l26 120h95l24 111l179 49l-34 -160h122l-26 -120h-121l-30 -140q-13 -61 -13 -80q0 -49 57 -49q21 0 54 9l-18 -113q-61 -11 -101 -11q-73 0 -117.5 37t-44.5 97z" />
<glyph unicode="u" horiz-adv-x="641" d="M47 162q0 59 23 166l36 167h173l-38 -175q-19 -91 -19 -125q0 -32 17 -51.5t46 -19.5q62 0 101 72q19 35 33 103l42 196h172l-68 -323q-19 -93 -31 -172h-158q0 3 1 6q1 4 1 5l8 37l9 37l1 2q0 2 0.5 5t0.5 5q-37 -57 -79 -81.5t-101 -24.5q-77 0 -123.5 47t-46.5 124z " />
<glyph unicode="v" horiz-adv-x="590" d="M146 0l-83 495h172l26 -217q8 -64 9 -142h4q28 78 62 142l112 217h183l-290 -495h-195z" />
<glyph unicode="w" horiz-adv-x="910" d="M114 0l-51 495h166l8 -205q2 -54 2 -88q0 -40 -3 -81q-2 -15 0 -24v-3q39 114 57 154l111 247h207l6 -218l1 -30q2 -80 -6 -153h4q15 78 72 204l89 197h175l-259 -495h-201l-7 242v21q0 68 4 136h-4q-16 -54 -63 -160l-107 -239h-201z" />
<glyph unicode="x" horiz-adv-x="588" d="M-47 0l228 260l-111 235h181l27 -71l9 -22l12 -36l8 -19l11 15q14 24 28 43q4 8 14 21l53 69h200l-208 -243l118 -252h-186l-33 85l-8 23l-11 34q-3 5 -5 15l-9 -12l-21 -31l-9 -12l-77 -102h-211z" />
<glyph unicode="y" horiz-adv-x="593" d="M-9 -66q37 -17 70 -17q41 0 66.5 18.5t44.5 62.5l-110 497h173l26 -180q2 -6 6 -39q4 -30 5 -44l3 -50l2 -23q11 23 13 29q36 82 62 128l98 179h185l-288 -488q-10 -17 -23.5 -40t-19 -32t-13.5 -22.5t-11.5 -18.5t-9 -13t-10 -13t-10.5 -12q-60 -64 -170 -64 q-74 0 -127 24z" />
<glyph unicode="z" horiz-adv-x="496" d="M-23 0l27 129l203 184q4 4 81 66q-41 -7 -88 -7h-139l26 120h420l-26 -126l-205 -187q-31 -28 -68 -54l-16 -11q51 6 95 6h149l-25 -120h-434z" />
<glyph unicode="{" horiz-adv-x="370" d="M-2 -59l38 180q4 16 4 37q0 37 -41 45l23 107q32 7 47.5 24t24.5 59l38 179q18 86 65 114.5t161 28.5h46l-23 -107h-15q-58 0 -74 -12t-27 -66l-31 -147q-11 -53 -29 -78.5t-58 -47.5q22 -17 30.5 -33t8.5 -41q0 -21 -6 -53l-31 -147q-7 -35 -7 -45q0 -20 15 -26.5 t60 -6.5h15l-23 -106h-45q-80 0 -102 5q-70 14 -70 84q0 26 6 53z" />
<glyph unicode="|" horiz-adv-x="500" d="M203 -167v834h130v-834h-130z" />
<glyph unicode="}" horiz-adv-x="370" d="M7 -95q58 0 74 12t27 66l31 147q11 52 29 77.5t58 49.5q-40 29 -40 73q0 22 7 53l31 147q7 35 7 45q0 20 -15 26.5t-60 6.5h-15l23 107h45q80 0 102 -5q70 -14 70 -85q0 -23 -6 -53l-38 -180q-5 -20 -5 -37q0 -37 42 -45l-23 -107q-32 -7 -47.5 -24t-24.5 -59l-38 -179 q-18 -85 -65 -113.5t-161 -28.5h-46l23 106h15z" />
<glyph unicode="~" horiz-adv-x="667" d="M179 560l-71 47l8 17q19 44 31 62.5t32 33.5q34 26 81 26q31 0 103 -26q65 -24 87 -24q24 0 39 11t32 41l74 -43q-23 -47 -38 -69t-36 -37q-38 -28 -85 -28q-25 0 -103 28q-61 22 -81 22q-27 0 -44 -17q-11 -9 -29 -44z" />
<glyph unicode="&#xa1;" horiz-adv-x="283" d="M81 343l32 152h162l-33 -152h-161zM-36 -171l119 450h129l-72 -450h-176z" />
<glyph unicode="&#xa2;" d="M261 -15l24 114q-85 16 -132.5 72t-47.5 141q0 72 34 134.5t91 94.5q63 37 150 37h6l23 104h80l-23 -110q49 -9 85 -23l-34 -110q-63 24 -106 24q-58 0 -100 -42t-42 -101q0 -47 32 -77t81 -30q50 0 103 22l-19 -117q-50 -19 -100 -19l-25 -114h-80z" />
<glyph unicode="&#xa3;" d="M-8 0l26 123h96l40 185h-82l18 87h82l6 27q18 83 40.5 127.5t63.5 75.5q72 56 192 56q80 0 151 -22l-34 -125q-53 20 -93 20q-65 0 -98.5 -35.5t-50.5 -123.5h140l-18 -87h-141l-39 -185h213l-27 -123h-485z" />
<glyph unicode="&#xa4;" d="M97 57l-66 67l90 90q-37 56 -37 119q0 61 37 119l-91 91l67 68l91 -92q58 37 122 37q63 0 119 -36l90 90l67 -67l-90 -89q39 -63 39 -121q0 -62 -37 -119l90 -90l-66 -67l-90 90q-58 -38 -123 -38q-59 0 -122 37zM309 218q47 0 81 34t34 81q0 46 -33.5 80t-79.5 34 q-49 0 -82.5 -33.5t-33.5 -81.5q0 -46 33.5 -80t80.5 -34z" />
<glyph unicode="&#xa5;" d="M152 0l43 200h-170l17 80h154l-24 93h-120l17 80h82l-57 214h180l29 -144q9 -42 12 -133q30 77 42 98l104 179h207l-146 -214h80l-17 -80h-117l-64 -93h151l-17 -80h-166l-43 -200h-177z" />
<glyph unicode="&#xa6;" horiz-adv-x="500" d="M203 320v347h130v-347h-130zM203 153h130v-320h-130v320z" />
<glyph unicode="&#xa7;" d="M4 -43q61 -32 101.5 -44t87.5 -12q51 0 79.5 20.5t28.5 56.5q0 45 -69 85q-70 41 -98 61t-51 46q-34 40 -34 93q0 66 49 110q35 29 105 48q-47 28 -66 54.5t-19 66.5q0 80 70 133t175 53q114 0 220 -56l-33 -110q-88 51 -165 51q-47 0 -75.5 -20.5t-28.5 -55.5 q0 -31 31 -54q18 -14 107 -64q64 -37 92.5 -74.5t28.5 -86.5q0 -70 -48 -115q-28 -28 -91 -48q35 -36 48.5 -63t13.5 -62q0 -79 -67 -132q-68 -52 -184 -52q-135 0 -242 63zM216 216q14 -11 89 -59l22 -15q76 43 76 104q0 29 -28 55t-110 72q-46 -23 -64 -44t-18 -52 q0 -37 33 -61z" />
<glyph unicode="&#xa8;" horiz-adv-x="500" d="M358 570l28 133h140l-28 -133h-140zM138 570l28 133h140l-28 -133h-140z" />
<glyph unicode="&#xa9;" horiz-adv-x="769" d="M54 333q0 147 102.5 248.5t250.5 101.5q140 0 241 -103.5t101 -246.5q0 -144 -102 -246.5t-245 -102.5t-245.5 102.5t-102.5 246.5zM130 333q0 -115 80 -197.5t192 -82.5t191.5 82.5t79.5 197.5t-79 198t-188 83q-116 0 -196 -81.5t-80 -199.5zM195 341q0 91 62.5 145 t166.5 54q66 0 128 -23l-10 -90q-55 27 -103 27q-55 0 -89 -31t-34 -81q0 -52 35.5 -83.5t94.5 -31.5q43 0 102 22l7 -93q-50 -18 -122 -18q-109 0 -173.5 55t-64.5 148z" />
<glyph unicode="&#xaa;" horiz-adv-x="393" d="M187 371q-48 0 -78 24.5t-30 63.5q0 108 192 108q26 0 41 -1q1 3 1 6q0 40 -58 40q-46 0 -106 -23l12 75q60 19 118 19q65 0 103 -26.5t38 -72.5q0 -22 -10 -70l-15 -70q-5 -24 -11 -68h-98l2 10q2 9 2.5 16t1.5 11q-45 -42 -105 -42zM228 442q59 0 73 64h-4q-7 1 -23 1 q-82 0 -82 -39q0 -26 36 -26zM50 273l13 60h308l-13 -60h-308z" />
<glyph unicode="&#xab;" horiz-adv-x="537" d="M332 62l-59 212l136 180h138l-137 -188l50 -204h-128zM96 62l-58 212l135 180h139l-137 -188l49 -204h-128z" />
<glyph unicode="&#xac;" horiz-adv-x="500" d="M51 150v117h433v-267h-130v150h-303z" />
<glyph unicode="&#xad;" horiz-adv-x="257" d="M-12 197l26 123h257l-26 -123h-257z" />
<glyph unicode="&#xae;" horiz-adv-x="769" d="M54 333q0 147 102.5 248.5t250.5 101.5q140 0 241 -103.5t101 -246.5q0 -144 -102 -246.5t-245 -102.5t-245.5 102.5t-102.5 246.5zM130 333q0 -115 80 -197.5t192 -82.5t191.5 82.5t79.5 197.5t-79 198t-188 83q-116 0 -196 -81.5t-80 -199.5zM235 147v384h171 q72 0 106 -18q51 -28 51 -87q0 -63 -66 -92q16 -10 23 -22t24 -55l43 -110h-124l-34 98q-9 27 -22 36.5t-41 9.5h-12v-144h-119zM351 373h36q57 0 57 37q0 39 -62 39h-31v-76z" />
<glyph unicode="&#xaf;" horiz-adv-x="500" d="M147 588l17 79h350l-17 -79h-350z" />
<glyph unicode="&#xb0;" horiz-adv-x="379" d="M259 423q-65 0 -110 45t-45 110q0 62 45.5 106t109.5 44t109 -44.5t45 -107.5t-45 -108t-109 -45zM259 499q31 0 53.5 23t22.5 54t-22.5 53.5t-54.5 22.5q-31 0 -53.5 -22t-22.5 -53q0 -33 22.5 -55.5t54.5 -22.5z" />
<glyph unicode="&#xb1;" d="M233 200v173h-190v120h190v174h120v-174h190v-120h-190v-173h-120zM43 20v120h500v-120h-500z" />
<glyph unicode="&#xb2;" horiz-adv-x="268" d="M58 400l11 53q40 25 105 70q54 38 54 66q0 13 -12 22t-29 9q-27 0 -75 -18l7 64q40 13 79 13q51 0 80 -21.5t29 -60.5q0 -72 -120 -141q18 1 36 1h62l-12 -57h-215z" />
<glyph unicode="&#xb3;" horiz-adv-x="268" d="M61 414l16 60q38 -19 74 -19q26 0 42.5 9.5t16.5 23.5q0 16 -22 22q-12 3 -59 4l12 54q13 -1 30 -1q60 0 60 27q0 26 -49 26q-27 0 -67 -12l7 59q41 12 83 12q49 0 77 -19.5t28 -53.5q0 -52 -60 -68q40 -16 40 -54q0 -41 -34.5 -64.5t-94.5 -23.5q-56 0 -100 18z" />
<glyph unicode="&#xb4;" horiz-adv-x="500" d="M213 567l108 140h162l-154 -140h-116z" />
<glyph unicode="&#xb5;" horiz-adv-x="641" d="M160 -1l-20 -200h-183l148 696h173l-38 -175q-19 -86 -19 -126q0 -32 17.5 -51t45.5 -19q63 0 102 72q17 32 32 103l42 196h172l-68 -323q-19 -93 -31 -172h-158q0 3 1 6q1 4 1 5l8 37l9 37v2q1 2 1.5 5t0.5 5q-37 -57 -79 -81.5t-101 -24.5q-27 0 -56 8z" />
<glyph unicode="&#xb6;" horiz-adv-x="587" d="M98 -201l97 459h-11q-56 0 -89.5 37.5t-33.5 98.5q0 58 21.5 114.5t57.5 93.5q62 65 183 65h323l-27 -123h-60l-159 -745h-110l159 745h-83l-158 -745h-110z" />
<glyph unicode="&#xb7;" horiz-adv-x="272" d="M41 182l32 152h162l-33 -152h-161z" />
<glyph unicode="&#xb8;" horiz-adv-x="500" d="M142 -91l70 91h70l-54 -68q24 3 32 3q33 0 53.5 -19t20.5 -50q0 -40 -34.5 -63t-93.5 -23q-62 0 -116 25l23 48q45 -22 79 -22q48 0 48 31q0 14 -11.5 23t-29.5 9q-14 0 -33 -6z" />
<glyph unicode="&#xb9;" horiz-adv-x="268" d="M144 400l32 153q3 15 11 37l-52 -31l-32 55l114 59h69l-58 -273h-84z" />
<glyph unicode="&#xba;" horiz-adv-x="437" d="M255 369q-79 0 -122.5 36.5t-43.5 101.5q0 80 56.5 128t150.5 48q74 0 119.5 -39.5t45.5 -103.5q0 -73 -52 -122q-54 -49 -154 -49zM265 444q32 0 54.5 28.5t22.5 71.5q0 29 -14.5 46.5t-38.5 17.5q-33 0 -56.5 -29.5t-23.5 -70.5q0 -29 15.5 -46.5t40.5 -17.5zM50 273 l13 60h346l-13 -60h-346z" />
<glyph unicode="&#xbb;" horiz-adv-x="537" d="M228 62l137 188l-49 204h128l58 -212l-136 -180h-138zM-7 62l136 188l-49 204h128l59 -212l-136 -180h-138z" />
<glyph unicode="&#xbc;" horiz-adv-x="982" d="M218 0l468 667h112l-467 -667h-113zM166 267l48 224q6 30 16 60q-8 -6 -18 -13l-60 -36l-45 78l165 87h98l-85 -400h-119zM574 77l15 73l220 250h130l-53 -247h61l-16 -76h-61l-16 -77h-112l17 77h-185zM689 152q21 1 23 1h67l16 75q10 43 20 76q-48 -72 -126 -152z" />
<glyph unicode="&#xbd;" horiz-adv-x="982" d="M218 0l468 667h112l-467 -667h-113zM166 267l48 224q6 30 16 60q-8 -6 -18 -13l-60 -36l-45 78l165 87h98l-85 -400h-119zM580 0l16 76q53 32 153 104q80 56 80 100q0 20 -18 33.5t-44 13.5q-39 0 -108 -27l10 89q57 20 114 20q75 0 116.5 -31.5t41.5 -87.5 q0 -54 -47.5 -109.5t-133.5 -101.5q31 2 59 2h90l-17 -81h-312z" />
<glyph unicode="&#xbe;" horiz-adv-x="982" d="M45 286l22 84q55 -27 108 -27q38 0 63 14.5t25 36.5q0 11 -9 20.5t-24 13.5q-17 5 -84 6l16 76q19 -1 43 -1q90 0 90 43q0 19 -19.5 29.5t-53.5 10.5q-37 0 -98 -18l10 84q64 17 121 17q71 0 111.5 -28.5t40.5 -78.5q0 -36 -23 -62q-21 -25 -72 -37q64 -23 64 -82 t-50 -93t-136 -34q-79 0 -145 26zM218 0l468 667h113l-468 -667h-113zM574 77l16 73l220 250h129l-52 -247h60l-16 -76h-60l-17 -77h-111l16 77h-185zM689 152q21 1 24 1h66l16 75q7 31 21 76q-56 -81 -127 -152z" />
<glyph unicode="&#xbf;" horiz-adv-x="497" d="M187 343l33 152h161l-32 -152h-162zM-26 -23q0 51 29 95t105 107q47 40 60 56.5t18 44.5h139q-10 -63 -33.5 -97.5t-102.5 -104.5q-42 -37 -42 -80q0 -31 29 -48t81 -17q57 0 139 32l-20 -128q-72 -24 -153 -24q-116 0 -182.5 43.5t-66.5 120.5z" />
<glyph unicode="&#xc0;" horiz-adv-x="734" d="M413 727l-138 133h160l95 -133h-117zM-51 0l397 667h224l109 -667h-179l-20 143h-255l-84 -143h-192zM294 270h169l-21 191l-1 12l-2 25v26l-2 14q-7 -14 -7 -15q-14 -31 -17 -38l-27 -52z" />
<glyph unicode="&#xc1;" horiz-adv-x="734" d="M404 727l112 133h168l-161 -133h-119zM-51 0l397 667h224l109 -667h-179l-20 143h-255l-84 -143h-192zM294 270h169l-21 191l-1 12l-2 25v26l-2 14q-7 -14 -7 -15q-14 -31 -17 -38l-27 -52z" />
<glyph unicode="&#xc2;" horiz-adv-x="734" d="M272 727l143 133h157l87 -133h-117l-55 70l-85 -70h-130zM-51 0l397 667h224l109 -667h-179l-20 143h-255l-84 -143h-192zM294 270h169l-21 191l-1 12l-2 25v26l-2 14q-7 -14 -7 -15q-14 -31 -17 -38l-27 -52z" />
<glyph unicode="&#xc3;" horiz-adv-x="734" d="M292 728q13 63 36 90q38 44 93 44q33 0 85 -24q44 -20 56 -20q16 0 25.5 9t15.5 32h72q-17 -67 -33 -89q-36 -45 -92 -45q-36 0 -85 23q-43 21 -57 21q-33 0 -44 -41h-72zM-51 0l397 667h224l109 -667h-179l-20 143h-255l-84 -143h-192zM294 270h169l-21 191l-1 12l-2 25 v26l-2 14q-7 -14 -7 -15q-14 -31 -17 -38l-27 -52z" />
<glyph unicode="&#xc4;" horiz-adv-x="734" d="M516 727l28 133h137l-28 -133h-137zM286 727l28 133h137l-28 -133h-137zM-51 0l397 667h224l109 -667h-179l-20 143h-255l-84 -143h-192zM294 270h169l-21 191l-1 12l-2 25v26l-2 14q-7 -14 -7 -15q-14 -31 -17 -38l-27 -52z" />
<glyph unicode="&#xc5;" horiz-adv-x="734" d="M481 703q-44 0 -75 31t-31 75q0 43 31.5 73.5t75.5 30.5q43 0 73.5 -31t30.5 -74q0 -44 -31 -74.5t-74 -30.5zM481 765q17 0 29.5 13t12.5 30t-12.5 30t-29.5 13q-18 0 -30.5 -12.5t-12.5 -30.5q0 -17 12.5 -30t30.5 -13zM-51 0l397 667h224l109 -667h-179l-20 143h-255 l-84 -143h-192zM294 270h169l-21 191l-1 12l-2 25v26l-2 14q-7 -14 -7 -15q-14 -31 -17 -38l-27 -52z" />
<glyph unicode="&#xc6;" horiz-adv-x="956" d="M-51 0l500 667h534l-27 -127h-246l-19 -135h221l-27 -127h-211l-20 -151h228l-27 -127h-397l20 142h-219l-102 -142h-208zM346 269h149l20 145q8 61 27 147h-4q-41 -84 -88 -149z" />
<glyph unicode="&#xc7;" horiz-adv-x="653" d="M186 35q-138 86 -138 259q0 86 33.5 163.5t94.5 129.5q108 93 286 93q119 0 234 -38l-44 -135q-84 42 -170 42q-112 0 -178 -68q-71 -73 -71 -185q0 -85 48.5 -131.5t136.5 -46.5q86 0 169 40l-20 -143q-89 -24 -181 -27l-45 -59q26 3 33 3q34 0 55 -20t21 -52 q0 -41 -35.5 -65t-96.5 -24q-60 0 -118 26l24 50q47 -22 81 -22q49 0 49 32q0 14 -12 23.5t-30 9.5q-12 0 -34 -7l-24 22l64 85q-77 10 -132 45z" />
<glyph unicode="&#xc8;" horiz-adv-x="594" d="M364 727l-138 133h160l95 -133h-117zM11 0l142 667h470l-27 -127h-290l-29 -134h275l-27 -127h-275l-32 -152h302l-27 -127h-482z" />
<glyph unicode="&#xc9;" horiz-adv-x="594" d="M318 727l112 133h168l-161 -133h-119zM11 0l142 667h470l-27 -127h-290l-29 -134h275l-27 -127h-275l-32 -152h302l-27 -127h-482z" />
<glyph unicode="&#xca;" horiz-adv-x="594" d="M209 727l143 133h157l87 -133h-117l-55 70l-85 -70h-130zM11 0l142 667h470l-27 -127h-290l-29 -134h275l-27 -127h-275l-32 -152h302l-27 -127h-482z" />
<glyph unicode="&#xcb;" horiz-adv-x="594" d="M447 727l28 133h137l-28 -133h-137zM217 727l28 133h137l-28 -133h-137zM11 0l142 667h470l-27 -127h-290l-29 -134h275l-27 -127h-275l-32 -152h302l-27 -127h-482z" />
<glyph unicode="&#xcc;" horiz-adv-x="321" d="M207 727l-124 133h153l85 -133h-114zM17 0l142 667h180l-142 -667h-180z" />
<glyph unicode="&#xcd;" horiz-adv-x="321" d="M205 727l95 133h168l-147 -133h-116zM17 0l142 667h180l-142 -667h-180z" />
<glyph unicode="&#xce;" horiz-adv-x="321" d="M78 727l133 133h151l76 -133h-113l-45 70l-76 -70h-126zM17 0l142 667h180l-142 -667h-180z" />
<glyph unicode="&#xcf;" horiz-adv-x="321" d="M297 727l29 133h124l-28 -133h-125zM110 727l28 133h125l-28 -133h-125zM17 0l142 667h180l-142 -667h-180z" />
<glyph unicode="&#xd0;" horiz-adv-x="742" d="M11 0l62 293h-60l24 110h60l56 264h180q111 0 159.5 -6.5t90.5 -26.5q70 -35 107.5 -100t37.5 -153q0 -119 -61 -216t-161 -135q-77 -30 -288 -30h-207zM218 127h41q80 0 123.5 10t75.5 36q39 31 63 87.5t24 116.5q0 93 -66 138q-35 24 -120 24h-54l-28 -136h133 l-23 -110h-134z" />
<glyph unicode="&#xd1;" horiz-adv-x="751" d="M307 728q13 63 36 90q38 44 93 44q33 0 85 -24q44 -20 56 -20q17 0 26 9t15 32h72q-17 -67 -33 -89q-36 -45 -92 -45q-36 0 -85 23q-43 21 -57 21q-33 0 -44 -41h-72zM11 0l142 667h220l97 -320q8 -25 13.5 -45t9.5 -37.5t6.5 -27t5 -24.5t3.5 -20t3 -22.5t3 -22.5h5 q0 66 23 181l66 338h168l-143 -667h-220l-106 357q-22 73 -32 156h-5q-2 -46 -10 -89l-15 -88l-69 -336h-165z" />
<glyph unicode="&#xd2;" horiz-adv-x="741" d="M425 727l-138 133h160l95 -133h-117zM121 61q-78 83 -78 218q0 96 37.5 181t104.5 141q52 43 112 62.5t143 19.5q141 0 214 -80q72 -80 72 -211q0 -76 -25.5 -151t-70.5 -131q-100 -126 -294 -126q-142 0 -215 77zM228 261q0 -68 31 -107t84 -39q85 0 142.5 84.5 t57.5 208.5q0 67 -31 105.5t-85 38.5q-73 0 -120 -56q-79 -97 -79 -235z" />
<glyph unicode="&#xd3;" horiz-adv-x="741" d="M398 727l112 133h168l-161 -133h-119zM121 61q-78 83 -78 218q0 96 37.5 181t104.5 141q52 43 112 62.5t143 19.5q141 0 214 -80q72 -80 72 -211q0 -76 -25.5 -151t-70.5 -131q-100 -126 -294 -126q-142 0 -215 77zM228 261q0 -68 31 -107t84 -39q85 0 142.5 84.5 t57.5 208.5q0 67 -31 105.5t-85 38.5q-73 0 -120 -56q-79 -97 -79 -235z" />
<glyph unicode="&#xd4;" horiz-adv-x="741" d="M282 727l143 133h157l87 -133h-117l-55 70l-85 -70h-130zM121 61q-78 83 -78 218q0 96 37.5 181t104.5 141q52 43 112 62.5t143 19.5q141 0 214 -80q72 -80 72 -211q0 -76 -25.5 -151t-70.5 -131q-100 -126 -294 -126q-142 0 -215 77zM228 261q0 -68 31 -107t84 -39 q85 0 142.5 84.5t57.5 208.5q0 67 -31 105.5t-85 38.5q-73 0 -120 -56q-79 -97 -79 -235z" />
<glyph unicode="&#xd5;" horiz-adv-x="741" d="M299 728q13 63 36 90q38 44 93 44q33 0 85 -24q44 -20 56 -20q17 0 26 9t15 32h72q-17 -67 -33 -89q-36 -45 -92 -45q-36 0 -85 23q-43 21 -57 21q-33 0 -44 -41h-72zM121 61q-78 83 -78 218q0 96 37.5 181t104.5 141q52 43 112 62.5t143 19.5q141 0 214 -80 q72 -80 72 -211q0 -76 -25.5 -151t-70.5 -131q-100 -126 -294 -126q-142 0 -215 77zM228 261q0 -68 31 -107t84 -39q85 0 142.5 84.5t57.5 208.5q0 67 -31 105.5t-85 38.5q-73 0 -120 -56q-79 -97 -79 -235z" />
<glyph unicode="&#xd6;" horiz-adv-x="741" d="M521 727l28 133h137l-28 -133h-137zM291 727l28 133h137l-28 -133h-137zM121 61q-78 83 -78 218q0 96 37.5 181t104.5 141q52 43 112 62.5t143 19.5q141 0 214 -80q72 -80 72 -211q0 -76 -25.5 -151t-70.5 -131q-100 -126 -294 -126q-142 0 -215 77zM228 261 q0 -68 31 -107t84 -39q85 0 142.5 84.5t57.5 208.5q0 67 -31 105.5t-85 38.5q-73 0 -120 -56q-79 -97 -79 -235z" />
<glyph unicode="&#xd7;" d="M168 115l-85 85l144 143l-144 144l85 85l144 -144l143 144l85 -85l-144 -144l144 -143l-85 -85l-143 144z" />
<glyph unicode="&#xd8;" horiz-adv-x="741" d="M44 -26l-57 78l89 74q-33 68 -33 155q0 95 37.5 180t104.5 140q100 82 249 82q133 0 207 -66l85 73l57 -77l-87 -73q30 -65 30 -149q0 -76 -25.5 -150.5t-70.5 -130.5q-100 -126 -293 -126q-132 0 -205 67zM228 252l284 261q-35 39 -88 39q-70 0 -117 -56 q-36 -44 -57.5 -106.5t-21.5 -123.5v-4v-10zM258 154q32 -39 86 -39q82 0 135 75q64 91 64 211v14z" />
<glyph unicode="&#xd9;" horiz-adv-x="708" d="M409 727l-138 133h160l95 -133h-117zM61 201q0 45 25 164l64 302h180l-68 -317q-19 -86 -19 -138q0 -46 24.5 -71.5t67.5 -25.5q80 0 115 86q11 28 35 136l70 330h180l-72 -341q-22 -105 -39.5 -154t-43.5 -83q-84 -105 -252 -105q-124 0 -195.5 58t-71.5 159z" />
<glyph unicode="&#xda;" horiz-adv-x="708" d="M376 727l112 133h168l-161 -133h-119zM61 201q0 45 25 164l64 302h180l-68 -317q-19 -86 -19 -138q0 -46 24.5 -71.5t67.5 -25.5q80 0 115 86q11 28 35 136l70 330h180l-72 -341q-22 -105 -39.5 -154t-43.5 -83q-84 -105 -252 -105q-124 0 -195.5 58t-71.5 159z" />
<glyph unicode="&#xdb;" horiz-adv-x="708" d="M265 727l143 133h157l87 -133h-117l-55 70l-85 -70h-130zM61 201q0 45 25 164l64 302h180l-68 -317q-19 -86 -19 -138q0 -46 24.5 -71.5t67.5 -25.5q80 0 115 86q11 28 35 136l70 330h180l-72 -341q-22 -105 -39.5 -154t-43.5 -83q-84 -105 -252 -105q-124 0 -195.5 58 t-71.5 159z" />
<glyph unicode="&#xdc;" horiz-adv-x="708" d="M504 727l28 133h137l-28 -133h-137zM274 727l28 133h137l-28 -133h-137zM61 201q0 45 25 164l64 302h180l-68 -317q-19 -86 -19 -138q0 -46 24.5 -71.5t67.5 -25.5q80 0 115 86q11 28 35 136l70 330h180l-72 -341q-22 -105 -39.5 -154t-43.5 -83q-84 -105 -252 -105 q-124 0 -195.5 58t-71.5 159z" />
<glyph unicode="&#xdd;" horiz-adv-x="690" d="M374 727l112 133h168l-161 -133h-119zM202 0l53 247l-161 420h189l48 -144l8 -25q5 -20 11 -38q13 -45 18 -69q25 49 60 99l126 177h220l-339 -420l-53 -247h-180z" />
<glyph unicode="&#xde;" horiz-adv-x="594" d="M11 0l142 667h180l-22 -103q133 -1 185 -24q107 -47 107 -163q0 -55 -23.5 -104.5t-64.5 -81.5q-38 -31 -87 -44t-126 -13q-40 0 -81 5l-29 -139h-181zM244 267q26 -2 45 -2q60 0 95.5 27.5t35.5 73.5q0 44 -35 63q-20 10 -69 10h-35z" />
<glyph unicode="&#xdf;" horiz-adv-x="636" d="M0 0l92 434q21 98 41 145t54 78q71 65 215 65q113 0 171 -39q67 -45 67 -130q0 -50 -22 -91t-61 -63q-46 -25 -120 -25l-1 -4q76 -4 117.5 -44.5t41.5 -109.5q0 -53 -23.5 -99.5t-66.5 -76.5q-68 -49 -188 -49q-45 0 -95 9l28 124q29 -8 51 -8q53 0 88 34t35 86 q0 36 -23 56.5t-63 20.5q-7 0 -29 -2l24 115h11q46 0 73 18q21 14 34.5 41.5t13.5 56.5q0 33 -20 53t-53 20q-56 0 -90 -55q-11 -18 -17.5 -39.5t-21.5 -94.5l-90 -426h-173z" />
<glyph unicode="&#xe0;" horiz-adv-x="575" d="M319 567l-131 140h153l92 -140h-114zM8 134q0 49 28.5 88.5t78.5 59.5q74 29 192 29q29 0 73 -3q2 18 2 22q0 34 -25 52.5t-71 18.5q-77 0 -162 -36l18 113q91 30 180 30q96 0 152 -39q65 -45 65 -121q0 -36 -17 -120l-25 -119q-10 -50 -18 -109h-143l2 11q13 71 14 74 h-3q-49 -94 -177 -94q-73 0 -118.5 39.5t-45.5 103.5zM175 148q0 -23 16.5 -36.5t45.5 -13.5q62 0 97 49q18 24 28 74q-3 1 -7 1q-18 2 -40 2q-68 0 -104 -19.5t-36 -56.5z" />
<glyph unicode="&#xe1;" horiz-adv-x="575" d="M289 567l108 140h162l-154 -140h-116zM8 134q0 49 28.5 88.5t78.5 59.5q74 29 192 29q29 0 73 -3q2 18 2 22q0 34 -25 52.5t-71 18.5q-77 0 -162 -36l18 113q91 30 180 30q96 0 152 -39q65 -45 65 -121q0 -36 -17 -120l-25 -119q-10 -50 -18 -109h-143l2 11q13 71 14 74 h-3q-49 -94 -177 -94q-73 0 -118.5 39.5t-45.5 103.5zM175 148q0 -23 16.5 -36.5t45.5 -13.5q62 0 97 49q18 24 28 74q-3 1 -7 1q-18 2 -40 2q-68 0 -104 -19.5t-36 -56.5z" />
<glyph unicode="&#xe2;" horiz-adv-x="575" d="M177 567l141 140h151l81 -140h-115l-48 77l-82 -77h-128zM8 134q0 49 28.5 88.5t78.5 59.5q74 29 192 29q29 0 73 -3q2 18 2 22q0 34 -25 52.5t-71 18.5q-77 0 -162 -36l18 113q91 30 180 30q96 0 152 -39q65 -45 65 -121q0 -36 -17 -120l-25 -119q-10 -50 -18 -109h-143 l2 11q13 71 14 74h-3q-49 -94 -177 -94q-73 0 -118.5 39.5t-45.5 103.5zM175 148q0 -23 16.5 -36.5t45.5 -13.5q62 0 97 49q18 24 28 74q-3 1 -7 1q-18 2 -40 2q-68 0 -104 -19.5t-36 -56.5z" />
<glyph unicode="&#xe3;" horiz-adv-x="575" d="M192 571q13 63 36 90q38 44 92 44q26 0 79 -24q42 -19 57 -19q16 0 25 9t15 31h72q-15 -62 -31 -87q-31 -47 -88 -47q-35 0 -84 23q-43 21 -57 21q-33 0 -44 -41h-72zM8 134q0 49 28.5 88.5t78.5 59.5q74 29 192 29q29 0 73 -3q2 18 2 22q0 34 -25 52.5t-71 18.5 q-77 0 -162 -36l18 113q91 30 180 30q96 0 152 -39q65 -45 65 -121q0 -36 -17 -120l-25 -119q-10 -50 -18 -109h-143l2 11q13 71 14 74h-3q-49 -94 -177 -94q-73 0 -118.5 39.5t-45.5 103.5zM175 148q0 -23 16.5 -36.5t45.5 -13.5q62 0 97 49q18 24 28 74q-3 1 -7 1 q-18 2 -40 2q-68 0 -104 -19.5t-36 -56.5z" />
<glyph unicode="&#xe4;" horiz-adv-x="575" d="M406 570l28 133h140l-28 -133h-140zM186 570l28 133h140l-28 -133h-140zM8 134q0 49 28.5 88.5t78.5 59.5q74 29 192 29q29 0 73 -3q2 18 2 22q0 34 -25 52.5t-71 18.5q-77 0 -162 -36l18 113q91 30 180 30q96 0 152 -39q65 -45 65 -121q0 -36 -17 -120l-25 -119 q-10 -50 -18 -109h-143l2 11q13 71 14 74h-3q-49 -94 -177 -94q-73 0 -118.5 39.5t-45.5 103.5zM175 148q0 -23 16.5 -36.5t45.5 -13.5q62 0 97 49q18 24 28 74q-3 1 -7 1q-18 2 -40 2q-68 0 -104 -19.5t-36 -56.5z" />
<glyph unicode="&#xe5;" horiz-adv-x="575" d="M358 549q-44 0 -75 31t-31 75q0 43 31.5 74t75.5 31q43 0 73.5 -31t30.5 -74q0 -44 -31 -75t-74 -31zM358 611q17 0 29.5 13t12.5 31q0 17 -12.5 30t-29.5 13q-18 0 -30.5 -12.5t-12.5 -30.5t12.5 -31t30.5 -13zM8 134q0 49 28.5 88.5t78.5 59.5q74 29 192 29q29 0 73 -3 q2 18 2 22q0 34 -25 52.5t-71 18.5q-77 0 -162 -36l18 113q91 30 180 30q96 0 152 -39q65 -45 65 -121q0 -36 -17 -120l-25 -119q-10 -50 -18 -109h-143l2 11q13 71 14 74h-3q-49 -94 -177 -94q-73 0 -118.5 39.5t-45.5 103.5zM175 148q0 -23 16.5 -36.5t45.5 -13.5 q62 0 97 49q18 24 28 74q-3 1 -7 1q-18 2 -40 2q-68 0 -104 -19.5t-36 -56.5z" />
<glyph unicode="&#xe6;" horiz-adv-x="908" d="M9 140q0 107 115 148q66 23 190 23q18 0 66 -2q2 8 2 17q0 36 -26.5 55.5t-74.5 19.5q-82 0 -170 -42l17 117q90 32 196 32q65 0 100 -15t55 -52q40 38 79.5 52.5t101.5 14.5q216 0 216 -211q0 -41 -12 -96h-344q-1 -33 6 -51t26 -31q34 -24 100 -24q70 0 145 34 l-17 -116q-69 -26 -165 -26q-85 0 -129 22t-66 76q-37 -54 -83 -76t-123 -22q-98 0 -151.5 40t-53.5 113zM533 298h200q1 7 1 16q0 41 -22 63.5t-62 22.5q-44 0 -75.5 -27t-41.5 -75zM173 144q0 -27 19.5 -44t50.5 -17q96 0 118 137q-28 3 -53 3q-135 0 -135 -79z" />
<glyph unicode="&#xe7;" horiz-adv-x="493" d="M136 22q-109 63 -109 199q0 75 33.5 140.5t91.5 101.5q70 45 185 45q87 0 170 -31l-37 -119q-57 25 -112 25q-66 0 -109.5 -43t-43.5 -108q0 -50 35 -82.5t90 -32.5q44 0 104 22l-20 -126q-66 -20 -132 -21l-47 -60q26 3 32 3q34 0 54.5 -19t20.5 -50q0 -40 -34.5 -63 t-94.5 -23q-61 0 -115 25l22 48q47 -22 80 -22q48 0 48 31q0 14 -11.5 23t-30.5 9q-10 0 -32 -6l-24 21l66 86q-50 10 -80 27z" />
<glyph unicode="&#xe8;" horiz-adv-x="579" d="M299 567l-131 140h153l92 -140h-114zM25 213q0 72 32 137.5t86 104.5q73 53 184 53q105 0 162.5 -57t57.5 -161q0 -40 -13 -89h-352q-1 -8 -1 -17q0 -40 33.5 -64.5t89.5 -24.5q76 0 168 37l-18 -116q-88 -29 -175 -29q-121 0 -187.5 59.5t-66.5 166.5zM197 298h209 q1 8 1 17q0 44 -24 69.5t-64 25.5q-46 0 -77.5 -29.5t-44.5 -82.5z" />
<glyph unicode="&#xe9;" horiz-adv-x="579" d="M272 567l108 140h162l-154 -140h-116zM25 213q0 72 32 137.5t86 104.5q73 53 184 53q105 0 162.5 -57t57.5 -161q0 -40 -13 -89h-352q-1 -8 -1 -17q0 -40 33.5 -64.5t89.5 -24.5q76 0 168 37l-18 -116q-88 -29 -175 -29q-121 0 -187.5 59.5t-66.5 166.5zM197 298h209 q1 8 1 17q0 44 -24 69.5t-64 25.5q-46 0 -77.5 -29.5t-44.5 -82.5z" />
<glyph unicode="&#xea;" horiz-adv-x="579" d="M157 567l141 140h151l81 -140h-115l-48 77l-82 -77h-128zM25 213q0 72 32 137.5t86 104.5q73 53 184 53q105 0 162.5 -57t57.5 -161q0 -40 -13 -89h-352q-1 -8 -1 -17q0 -40 33.5 -64.5t89.5 -24.5q76 0 168 37l-18 -116q-88 -29 -175 -29q-121 0 -187.5 59.5 t-66.5 166.5zM197 298h209q1 8 1 17q0 44 -24 69.5t-64 25.5q-46 0 -77.5 -29.5t-44.5 -82.5z" />
<glyph unicode="&#xeb;" horiz-adv-x="579" d="M388 570l28 133h140l-28 -133h-140zM168 570l28 133h140l-28 -133h-140zM25 213q0 72 32 137.5t86 104.5q73 53 184 53q105 0 162.5 -57t57.5 -161q0 -40 -13 -89h-352q-1 -8 -1 -17q0 -40 33.5 -64.5t89.5 -24.5q76 0 168 37l-18 -116q-88 -29 -175 -29 q-121 0 -187.5 59.5t-66.5 166.5zM197 298h209q1 8 1 17q0 44 -24 69.5t-64 25.5q-46 0 -77.5 -29.5t-44.5 -82.5z" />
<glyph unicode="&#xec;" horiz-adv-x="279" d="M147 567l-111 140h143l79 -140h-111zM0 0l105 495h173l-105 -495h-173z" />
<glyph unicode="&#xed;" horiz-adv-x="279" d="M147 567l102 140h155l-141 -140h-116zM0 0l105 495h173l-105 -495h-173z" />
<glyph unicode="&#xee;" horiz-adv-x="279" d="M28 567l128 140h144l68 -140h-109l-38 77l-70 -77h-123zM0 0l105 495h173l-105 -495h-173z" />
<glyph unicode="&#xef;" horiz-adv-x="279" d="M236 570l28 133h130l-28 -133h-130zM50 570l28 133h130l-28 -133h-130zM0 0l105 495h173l-105 -495h-173z" />
<glyph unicode="&#xf0;" horiz-adv-x="629" d="M94 43q-71 62 -71 165q0 64 28.5 122.5t76.5 94.5q38 29 93.5 46t112.5 17q46 0 92 -17q-26 55 -79 96l-95 -54l-39 52l70 41q-41 20 -86 32l98 97q51 -8 131 -46l97 58l42 -53l-79 -46q123 -110 123 -305q0 -146 -57 -231q-84 -125 -277 -125q-116 0 -181 56zM201 212 q0 -49 25.5 -79.5t66.5 -30.5q54 0 92 47.5t38 115.5q0 48 -24.5 78t-63.5 30q-54 0 -94 -48t-40 -113z" />
<glyph unicode="&#xf1;" horiz-adv-x="646" d="M209 571q13 63 36 90q38 44 92 44q26 0 79 -24q42 -19 57 -19q16 0 25 9t15 31h72q-15 -62 -31 -87q-31 -47 -88 -47q-35 0 -84 23q-43 21 -57 21q-33 0 -44 -41h-72zM6 0l71 332l6 33l11 53q4 20 11 77h155q-5 -41 -21 -95h5q79 108 187 108q78 0 122 -45.5t44 -127.5 q0 -63 -22 -168l-36 -167h-173l34 161q21 94 21 142q0 31 -17.5 50t-46.5 19q-32 0 -61 -20.5t-46 -55.5q-14 -28 -31 -109l-40 -187h-173z" />
<glyph unicode="&#xf2;" horiz-adv-x="635" d="M334 567l-131 140h153l92 -140h-114zM96 43q-71 60 -71 169q0 135 88.5 215.5t237.5 80.5q115 0 184 -63.5t69 -169.5q0 -58 -22.5 -114t-60.5 -93q-84 -81 -241 -81q-118 0 -184 56zM203 212q0 -49 25.5 -79.5t66.5 -30.5q56 0 95 52t39 128q0 50 -24 80.5t-64 30.5 q-57 0 -97.5 -53.5t-40.5 -127.5z" />
<glyph unicode="&#xf3;" horiz-adv-x="635" d="M297 567l108 140h162l-154 -140h-116zM96 43q-71 60 -71 169q0 135 88.5 215.5t237.5 80.5q115 0 184 -63.5t69 -169.5q0 -58 -22.5 -114t-60.5 -93q-84 -81 -241 -81q-118 0 -184 56zM203 212q0 -49 25.5 -79.5t66.5 -30.5q56 0 95 52t39 128q0 50 -24 80.5t-64 30.5 q-57 0 -97.5 -53.5t-40.5 -127.5z" />
<glyph unicode="&#xf4;" horiz-adv-x="635" d="M197 567l141 140h151l81 -140h-115l-48 77l-82 -77h-128zM96 43q-71 60 -71 169q0 135 88.5 215.5t237.5 80.5q115 0 184 -63.5t69 -169.5q0 -58 -22.5 -114t-60.5 -93q-84 -81 -241 -81q-118 0 -184 56zM203 212q0 -49 25.5 -79.5t66.5 -30.5q56 0 95 52t39 128 q0 50 -24 80.5t-64 30.5q-57 0 -97.5 -53.5t-40.5 -127.5z" />
<glyph unicode="&#xf5;" horiz-adv-x="635" d="M211 571q13 63 36 90q38 44 92 44q26 0 79 -24q42 -19 57 -19q16 0 25 9t15 31h72q-15 -62 -31 -87q-31 -47 -88 -47q-35 0 -84 23q-43 21 -57 21q-33 0 -44 -41h-72zM96 43q-71 60 -71 169q0 135 88.5 215.5t237.5 80.5q115 0 184 -63.5t69 -169.5q0 -58 -22.5 -114 t-60.5 -93q-84 -81 -241 -81q-118 0 -184 56zM203 212q0 -49 25.5 -79.5t66.5 -30.5q56 0 95 52t39 128q0 50 -24 80.5t-64 30.5q-57 0 -97.5 -53.5t-40.5 -127.5z" />
<glyph unicode="&#xf6;" horiz-adv-x="635" d="M423 570l28 133h140l-28 -133h-140zM203 570l28 133h140l-28 -133h-140zM96 43q-71 60 -71 169q0 135 88.5 215.5t237.5 80.5q115 0 184 -63.5t69 -169.5q0 -58 -22.5 -114t-60.5 -93q-84 -81 -241 -81q-118 0 -184 56zM203 212q0 -49 25.5 -79.5t66.5 -30.5q56 0 95 52 t39 128q0 50 -24 80.5t-64 30.5q-57 0 -97.5 -53.5t-40.5 -127.5z" />
<glyph unicode="&#xf7;" d="M247 474v129h129v-129h-129zM62 283v120h500v-120h-500zM247 84v129h129v-129h-129z" />
<glyph unicode="&#xf8;" horiz-adv-x="635" d="M0 32l61 50q-36 56 -36 132q0 133 88.5 213.5t233.5 80.5q101 0 168 -48l72 59l40 -58l-63 -52q40 -58 40 -134q0 -58 -22.5 -114t-60.5 -93q-84 -81 -241 -81q-110 0 -170 45l-70 -58zM203 195l199 170q-27 28 -62 28q-55 0 -96 -53.5t-41 -125.5v-19zM230 130 q27 -28 65 -28q56 0 95 52.5t39 126.5q0 11 -2 21z" />
<glyph unicode="&#xf9;" horiz-adv-x="641" d="M335 567l-131 140h153l92 -140h-114zM47 162q0 59 23 166l36 167h173l-38 -175q-19 -91 -19 -125q0 -32 17 -51.5t46 -19.5q62 0 101 72q19 35 33 103l42 196h172l-68 -323q-19 -93 -31 -172h-158q0 3 1 6q1 4 1 5l8 37l9 37l1 2q0 2 0.5 5t0.5 5q-37 -57 -79 -81.5 t-101 -24.5q-77 0 -123.5 47t-46.5 124z" />
<glyph unicode="&#xfa;" horiz-adv-x="641" d="M318 567l108 140h162l-154 -140h-116zM47 162q0 59 23 166l36 167h173l-38 -175q-19 -91 -19 -125q0 -32 17 -51.5t46 -19.5q62 0 101 72q19 35 33 103l42 196h172l-68 -323q-19 -93 -31 -172h-158q0 3 1 6q1 4 1 5l8 37l9 37l1 2q0 2 0.5 5t0.5 5q-37 -57 -79 -81.5 t-101 -24.5q-77 0 -123.5 47t-46.5 124z" />
<glyph unicode="&#xfb;" horiz-adv-x="641" d="M201 567l141 140h151l81 -140h-115l-48 77l-82 -77h-128zM47 162q0 59 23 166l36 167h173l-38 -175q-19 -91 -19 -125q0 -32 17 -51.5t46 -19.5q62 0 101 72q19 35 33 103l42 196h172l-68 -323q-19 -93 -31 -172h-158q0 3 1 6q1 4 1 5l8 37l9 37l1 2q0 2 0.5 5t0.5 5 q-37 -57 -79 -81.5t-101 -24.5q-77 0 -123.5 47t-46.5 124z" />
<glyph unicode="&#xfc;" horiz-adv-x="641" d="M424 570l28 133h140l-28 -133h-140zM204 570l28 133h140l-28 -133h-140zM47 162q0 59 23 166l36 167h173l-38 -175q-19 -91 -19 -125q0 -32 17 -51.5t46 -19.5q62 0 101 72q19 35 33 103l42 196h172l-68 -323q-19 -93 -31 -172h-158q0 3 1 6q1 4 1 5l8 37l9 37l1 2 q0 2 0.5 5t0.5 5q-37 -57 -79 -81.5t-101 -24.5q-77 0 -123.5 47t-46.5 124z" />
<glyph unicode="&#xfd;" horiz-adv-x="593" d="M288 567l108 140h162l-154 -140h-116zM-9 -66q37 -17 70 -17q41 0 66.5 18.5t44.5 62.5l-110 497h173l26 -180q2 -6 6 -39q4 -30 5 -44l3 -50l2 -23q11 23 13 29q36 82 62 128l98 179h185l-288 -488q-10 -17 -23.5 -40t-19 -32t-13.5 -22.5t-11.5 -18.5t-9 -13t-10 -13 t-10.5 -12q-60 -64 -170 -64q-74 0 -127 24z" />
<glyph unicode="&#xfe;" horiz-adv-x="652" d="M183 20l-47 -221h-173l153 720q27 128 32 176h164l-51 -240q-6 -27 -15 -54h4q62 107 180 107q88 0 140 -59t52 -159q0 -128 -78 -222q-68 -81 -183 -81q-91 0 -133 48q-16 18 -31 56l-3 -8q0 -4 -3 -19q0 -9 -8 -44zM236 209q0 -43 24 -70t62 -27q51 0 87.5 50.5 t36.5 120.5q0 44 -22.5 72t-58.5 28q-64 0 -102 -72q-27 -51 -27 -102z" />
<glyph unicode="&#xff;" horiz-adv-x="593" d="M408 570l28 133h140l-28 -133h-140zM188 570l28 133h140l-28 -133h-140zM-9 -66q37 -17 70 -17q41 0 66.5 18.5t44.5 62.5l-110 497h173l26 -180q2 -6 6 -39q4 -30 5 -44l3 -50l2 -23q11 23 13 29q36 82 62 128l98 179h185l-288 -488q-10 -17 -23.5 -40t-19 -32 t-13.5 -22.5t-11.5 -18.5t-9 -13t-10 -13t-10.5 -12q-60 -64 -170 -64q-74 0 -127 24z" />
<glyph unicode="&#x152;" horiz-adv-x="957" d="M45 295q0 167 106.5 272t276.5 105q31 0 76 -3q41 -2 117 -2h359l-27 -127h-234l-29 -135h218l-27 -127h-218l-32 -151h251l-27 -127h-328q-63 0 -114 -4q-35 -3 -61 -3q-141 0 -224 82t-83 220zM227 285q0 -73 43.5 -117t115.5 -44q30 0 67 11l84 397q-42 9 -77 9 q-105 0 -166 -71q-67 -78 -67 -185z" />
<glyph unicode="&#x153;" horiz-adv-x="963" d="M26 220q0 69 30 132.5t81 100.5q76 55 197 55q137 0 185 -82q64 82 186 82q110 0 167.5 -53.5t57.5 -156.5q0 -36 -11 -97h-344v-19q0 -41 35 -64t98 -23q67 0 142 34l-18 -116q-84 -26 -169 -26q-79 0 -122.5 23t-65.5 75q-32 -52 -80.5 -75t-124.5 -23q-112 0 -178 63 t-66 170zM586 298h199l1 21q1 38 -21 60t-61 22q-85 0 -118 -103zM204 207q0 -52 22 -82t60 -30q55 0 93.5 56.5t38.5 137.5q0 50 -23 81t-60 31q-57 0 -94 -55t-37 -139z" />
<glyph unicode="&#x178;" horiz-adv-x="690" d="M490 727l28 133h137l-28 -133h-137zM260 727l28 133h137l-28 -133h-137zM202 0l53 247l-161 420h189l48 -144l8 -25q5 -20 11 -38q13 -45 18 -69q25 49 60 99l126 177h220l-339 -420l-53 -247h-180z" />
<glyph unicode="&#x2c6;" horiz-adv-x="500" d="M130 567l141 140h151l81 -140h-115l-48 77l-82 -77h-128z" />
<glyph unicode="&#x2dc;" horiz-adv-x="500" d="M144 571q13 63 36 90q38 44 92 44q26 0 79 -24q42 -19 57 -19q16 0 25 9t15 31h72q-15 -62 -31 -87q-31 -47 -88 -47q-35 0 -84 23q-43 21 -57 21q-33 0 -44 -41h-72z" />
<glyph unicode="&#x2000;" horiz-adv-x="456" />
<glyph unicode="&#x2001;" horiz-adv-x="913" />
<glyph unicode="&#x2002;" horiz-adv-x="456" />
<glyph unicode="&#x2003;" horiz-adv-x="913" />
<glyph unicode="&#x2004;" horiz-adv-x="304" />
<glyph unicode="&#x2005;" horiz-adv-x="228" />
<glyph unicode="&#x2006;" horiz-adv-x="152" />
<glyph unicode="&#x2007;" horiz-adv-x="152" />
<glyph unicode="&#x2008;" horiz-adv-x="114" />
<glyph unicode="&#x2009;" horiz-adv-x="182" />
<glyph unicode="&#x200a;" horiz-adv-x="50" />
<glyph unicode="&#x2010;" horiz-adv-x="257" d="M-12 197l26 123h257l-26 -123h-257z" />
<glyph unicode="&#x2011;" horiz-adv-x="257" d="M-12 197l26 123h257l-26 -123h-257z" />
<glyph unicode="&#x2012;" horiz-adv-x="257" d="M-12 197l26 123h257l-26 -123h-257z" />
<glyph unicode="&#x2013;" d="M12 197l26 123h537l-26 -123h-537z" />
<glyph unicode="&#x2014;" horiz-adv-x="804" d="M-12 197l26 123h804l-26 -123h-804z" />
<glyph unicode="&#x2018;" horiz-adv-x="292" d="M77 456l144 259h136l-110 -259h-170z" />
<glyph unicode="&#x2019;" horiz-adv-x="292" d="M74 441l110 259h170l-144 -259h-136z" />
<glyph unicode="&#x201a;" horiz-adv-x="292" d="M-43 -106l110 259h170l-144 -259h-136z" />
<glyph unicode="&#x201c;" horiz-adv-x="530" d="M315 456l144 259h136l-110 -259h-170zM77 456l144 259h136l-110 -259h-170z" />
<glyph unicode="&#x201d;" horiz-adv-x="530" d="M315 456l111 259h169l-144 -259h-136zM77 456l110 259h170l-144 -259h-136z" />
<glyph unicode="&#x201e;" horiz-adv-x="530" d="M195 -107l111 260h169l-144 -260h-136zM-43 -107l111 260h169l-144 -260h-136z" />
<glyph unicode="&#x2022;" horiz-adv-x="667" d="M335 200q-58 0 -98.5 40.5t-40.5 97.5q0 58 40.5 98.5t99.5 40.5q56 0 96.5 -41t40.5 -98t-40.5 -97.5t-97.5 -40.5z" />
<glyph unicode="&#x2026;" horiz-adv-x="816" d="M546 0l32 153h162l-33 -153h-161zM274 0l32 153h162l-33 -153h-161zM2 0l32 153h162l-33 -153h-161z" />
<glyph unicode="&#x202f;" horiz-adv-x="182" />
<glyph unicode="&#x2039;" horiz-adv-x="302" d="M96 62l-58 212l135 180h139l-137 -188l49 -204h-128z" />
<glyph unicode="&#x203a;" horiz-adv-x="302" d="M-7 62l136 188l-49 204h128l59 -212l-136 -180h-138z" />
<glyph unicode="&#x205f;" horiz-adv-x="228" />
<glyph unicode="&#x20ac;" horiz-adv-x="715" d="M170 124q-25 50 -31 108h-96l47 88h48q1 9 2.5 19.5t1.5 12.5h-73l46 88h51q44 117 137.5 180t221.5 63q117 0 181 -44l-83 -156q-31 69 -107 69q-95 0 -152 -112h237l-46 -88h-223q-2 -5 -7 -32h212l-47 -88h-167q15 -117 113 -117q71 0 122 57l-38 -180q-41 -8 -92 -8 q-187 0 -258 140z" />
<glyph unicode="&#x2122;" horiz-adv-x="905" d="M366 287l81 381h171l19 -142q7 -53 8 -118q26 64 41 91l95 169h176l-80 -381h-113l54 244q4 17 8 33l4 17q-18 -40 -41 -82l-119 -212h-103l-24 188q-7 55 -11 110q-1 -5 -2 -12t-1 -9l-8 -44l-47 -233h-108zM113 287l63 298h-101l18 83h315l-17 -83h-99l-63 -298h-116z " />
<glyph unicode="&#x25fc;" horiz-adv-x="495" d="M0 495h495v-495h-495v495z" />
</font>
</defs>
</svg>
